#TITLE:Evolution;
#SUBTITLE:(goldenscan remix);
#ARTIST:浜崎あゆみ;
#TITLETRANSLIT:;
#SUBTITLETRANSLIT:;
#ARTISTTRANSLIT:Ayumi Hamasaki;
#CREDIT:;
#BANNER:;
#BACKGROUND:;
#LYRICSPATH:;
#CDTITLE:L.H.L. Version 2.png.png;
#MUSIC:Ayumi Hamasaki - Ayu Trance - 09 - Evolution (Goldenscan R.mp3;
#OFFSET:2.840;
#SAMPLESTART:100.000;
#SAMPLELENGTH:12.000;
#SELECTABLE:YES;
#BPMS:0.000=70.000,24.000=140.000;
#STOPS:;
#BGCHANGES:;
// cache tags:
#FIRSTBEAT:4.000;
#LASTBEAT:492.000;
#SONGFILENAME:Songs/SS Ayu Style -Mini Pack-/Evolution (goldenscan remix)/Evolution (goldenscan remix).sm;
#HASMUSIC:1;
#HASBANNER:0;
#MUSICLENGTH:221.027;
// end cache tags

//---------------dance-single - ----------------
#NOTES:
     dance-single:
     :
     Easy:
     5:
     0.337,0.501,0.299,0.185,0.000,414.000,66.000,41.000,0.000,0.000:
0000
0000
0000
0000
,
0200
0000
0000
0000
,
0320
0000
0000
0000
,
0230
0000
0000
0000
,
0320
0000
0000
0000
,
0000
0000
0000
0000
0000
0000
0000
0030
,
1000
0001
1000
0001
,
1000
0001
1000
0010
,
0100
0010
0100
0010
,
0100
0001
1000
0001
,
1001
0010
0010
0001
,
0100
1000
0010
0100
,
0110
0001
1000
0001
,
0010
0100
1000
0001
,
1000
0001
1000
0001
,
0001
0001
1000
1000
,
0010
0001
1000
0010
,
1000
0001
0010
0100
,
1000
1000
0010
0010
,
0100
0100
0001
0001
,
0010
0100
0001
0010
,
0100
1000
0010
0100
,
2000
0000
0000
0000
,
3020
0000
0000
0000
,
0230
0000
0000
0000
,
0302
0000
0000
0000
0000
0000
0000
0003
,
1000
0001
1000
0001
,
1000
0001
1000
0000
0010
0000
0100
0000
,
0001
0010
0100
1000
,
0010
0100
0010
0000
0001
0000
1001
0000
,
0100
0100
0100
0100
,
0010
0010
0001
0001
,
1000
0010
1000
0001
,
0010
0000
0100
0000
1000
0000
0100
1000
,
0002
0000
0000
0000
0000
0000
0000
0003
,
1000
0001
1000
0001
,
0010
0010
0010
0010
,
0100
0010
0001
1000
,
0100
1100
0001
0101
,
0010
0100
0001
1001
,
0010
0100
1000
0110
,
0001
0010
0100
1000
,
2000
0000
0000
0000
3020
0000
0000
0030
,
0100
0001
1000
0010
,
1000
0100
0001
0010
,
0011
0000
0100
0000
1000
0000
0010
1000
,
0100
0001
0100
1000
,
1001
0000
0110
0000
1001
0000
0010
0001
,
0100
0110
0011
1100
,
0010
0000
0100
0000
0001
0000
0001
1000
,
0100
0010
0000
0100
,
0001
0010
0100
1000
,
0001
1000
0010
0110
,
0001
1000
0100
0010
,
0001
1000
0100
0010
,
2000
0000
0000
0000
,
3200
0000
2300
0000
,
3002
0000
0000
0000
,
0203
0000
0320
0000
,
2030
0000
0000
0000
,
3020
0000
0000
0230
,
0302
0000
0000
0000
0000
0000
0000
0003
,
0200
0000
0000
0000
,
0301
1000
0010
0100
,
0001
0010
0100
1000
,
0001
0000
0010
0000
0100
0000
1000
0010
,
2000
0000
0000
0000
,
3200
0000
0000
0000
,
0310
0001
0010
0001
,
0010
1000
0010
1000
,
0100
1000
0100
1000
,
0001
0100
0001
0100
,
0110
0110
0110
1001
,
0110
0110
0110
1001
,
0110
0110
0110
1001
,
0220
0000
0000
0000
0000
0000
0300
0030
,
0011
1010
0011
1010
,
0101
1100
0101
1100
,
0011
1010
0101
0011
,
1100
1010
1100
1010
,
1001
1001
1001
0110
,
1001
1001
1001
0110
,
1001
1001
1001
0110
,
2002
0000
0000
0000
0000
0000
0000
3003
,
0100
0100
0100
0100
,
0010
0010
0010
0010
,
0002
0000
0100
0000
,
0100
0000
0000
0000
0100
0000
0000
0003
,
1000
1000
1000
1000
,
0010
0010
0010
0010
,
0200
0000
0010
0000
,
0001
0000
0010
0000
0010
0000
0010
0300
,
0001
0000
0010
0000
0100
1000
0010
0000
,
0100
0000
0001
0000
0010
0001
0100
0000
,
0010
0000
1000
0000
1000
0001
0100
0000
,
0010
0000
0100
0000
0001
0010
0100
1000
,
0020
0000
0000
1000
,
0230
0000
0000
0010
,
0302
0000
0000
1000
,
0010
0010
0020
0000
0000
0000
0000
0033
,
0100
1000
0010
0001
,
0100
0001
0010
0100
,
1100
0011
0110
1001
,
0010
0000
0100
0000
0001
0000
0100
1000
,
0020
0000
0000
0000
,
0230
0000
0000
0000
,
0302
0000
0000
0000
0000
0000
0000
0003
,
2000
0000
0000
0000
3020
0000
0000
0030
,
0100
0001
1000
0010
,
0100
0001
0010
0100
,
1000
0110
0001
0110
,
0001
1100
0001
0101
,
0010
0000
0100
0000
0001
0010
0100
0000
,
1000
0000
0010
0000
1000
0001
0010
0000
,
0100
0001
0100
1000
,
0010
0001
0010
1000
,
0010
0000
0100
0000
0001
0000
0010
0100
,
1000
0000
0010
0000
0100
0000
0001
0010
,
0100
0000
0001
0000
0100
0000
1000
0001
,
0100
0000
0010
1000
0100
0000
0010
0001
,
0100
0001
0100
1000
,
0010
0100
0001
1000
,
0220
0000
0000
0000
,
0330
0000
0000
0000
;

//---------------dance-single - Copied from----------------
#NOTES:
     dance-single:
     Copied from:
     Medium:
     8:
     0.468,0.501,0.090,0.326,0.000,632.000,20.000,72.000,0.000,0.000:
0000
0000
0000
0000
,
0020
0000
2030
0000
,
3200
0000
2300
0000
,
3002
0000
0023
0000
,
0230
0000
0000
0000
,
0000
0000
0010
0310
,
0001
1000
0001
1000
,
0010
0000
1000
0000
0100
0010
0001
1000
,
0010
0100
0001
0010
,
0100
0000
1000
0000
1000
0010
0100
0001
,
0010
0100
1000
0001
,
0100
0000
1000
0000
0010
0100
0010
1000
,
0001
0100
0001
0100
,
0001
1000
0100
0000
0010
0100
0001
0000
,
0001
1000
0100
1000
0001
0100
0010
0000
,
0001
0010
0100
1000
0001
0010
0100
0000
,
0010
1000
0001
0100
0010
1000
0001
0000
,
0100
0010
0001
1000
0100
1000
0001
0000
,
1100
0110
0011
1100
,
0101
1010
0101
0110
,
0001
0010
0100
0000
1000
0010
0100
0000
,
0001
0010
0100
0001
0100
1000
0010
0100
,
0002
0000
0000
0000
0023
0000
0000
2030
,
0000
0000
0000
0000
,
3020
0000
0230
0000
,
0302
0000
0003
2000
0000
0000
0000
3000
,
0010
0100
0001
0000
0010
0100
1000
0000
,
0001
0010
0100
1000
0001
0000
0010
0000
,
0100
1000
0010
0000
0001
0010
0100
0000
,
0001
0100
0001
0010
0100
0000
0001
0000
,
0010
1000
0100
0010
0001
0100
0001
0010
,
0100
1000
0001
0010
0100
1000
0001
0010
,
0100
1000
0001
1000
0001
1000
0001
1000
,
0010
0100
0010
0100
0010
0100
0010
0100
,
0002
0000
0000
0000
0000
0000
0000
0003
,
0100
0010
1000
0001
0010
0100
1000
0001
,
0010
0100
0001
0100
1000
0010
0100
0001
,
0100
1000
0001
0010
0100
0001
0010
0100
,
1000
0100
0010
0001
1000
0100
0010
0001
,
2000
0000
0000
3020
,
0230
0000
0000
0302
,
0023
0000
0000
0000
0000
0030
0200
0000
,
2300
0000
0000
0000
3020
0000
0000
0030
,
0100
0010
0100
0000
0010
0100
0010
0000
,
0100
0010
0100
0000
0010
0100
0010
0000
,
0001
1000
0001
0000
1000
0001
1000
0000
,
0001
1000
0001
0000
1000
0001
1000
0001
,
0010
0100
0001
0010
,
0100
1000
1100
0110
,
0001
0100
1000
0010
,
0001
0010
0100
1000
0001
0000
1001
0000
,
0010
0000
0001
0000
0100
1000
0010
0000
,
0001
0000
0100
0000
0001
0010
0100
0001
,
0100
0000
0010
0000
0001
0010
1000
0000
,
0001
0000
0100
0000
0001
0010
1000
0010
,
0100
0001
0100
0001
,
0100
0000
0001
0000
0001
0100
1000
0000
,
0001
0010
0100
1000
,
0010
0000
0001
0000
0001
0100
1000
0100
,
0020
0000
0000
0000
0032
0000
0000
0003
,
2000
0000
0000
3020
,
0230
0000
0000
0000
,
0302
0000
0000
0003
2000
0000
0000
3000
,
0010
0100
0010
0100
0010
1000
0010
1000
,
0001
1000
0001
1000
0100
1000
0100
0010
,
0100
0010
0100
0010
0001
0010
0001
0010
,
0001
0100
0001
0100
0001
1000
0001
0010
,
0200
0000
0000
0000
0000
0000
0000
0300
,
0001
0010
0100
0001
0100
1000
0001
0010
,
0100
1000
0001
0010
1000
0010
0100
0010
,
1000
0001
0010
0100
1000
0001
0010
0100
,
0001
0100
1000
0010
0100
0001
0010
0100
,
2000
0000
0000
3020
,
0230
0000
0000
0000
0000
0300
0002
0000
,
0023
0000
0000
0000
0000
0030
0200
0300
,
2000
0000
0000
0000
0000
0000
0000
3000
,
0001
0010
0100
0001
0100
1000
0010
0100
,
0001
0010
0010
1000
0100
0010
0001
1000
,
0100
0001
0100
1000
0001
0010
1000
0010
,
0001
0010
0100
1000
0010
0100
0001
0010
,
0200
0000
0000
2300
,
3020
0000
0000
0000
0000
0030
0200
0000
,
0302
0000
0000
0000
,
0023
0000
0000
0000
0230
0000
0000
0300
,
1000
0100
1000
0100
1000
0100
1000
0100
,
0100
0001
0100
0001
0100
0001
0100
0001
,
0020
0000
0230
0000
,
0320
0000
0000
0030
0200
0000
0000
0300
,
0010
0100
0010
0100
0010
0100
0010
0100
,
0001
1000
0001
1000
0001
1000
0001
1000
,
0002
0000
2003
0000
,
3002
2003
3002
2003
,
3010
0100
0001
0010
0100
1000
0001
0100
,
0001
0010
0100
0001
0100
1000
0010
0100
,
0001
0010
0100
1000
0010
0100
0001
0010
,
0100
1000
0001
0010
0100
1000
0001
0010
,
0200
0000
0000
2300
,
3020
0000
0000
0000
0000
0030
0200
0000
,
0302
0000
0000
0000
0000
0003
0020
0030
,
0100
1000
0020
0000
0000
0230
0000
0300
,
0001
0010
0001
1000
0010
1000
0001
0100
,
0010
0100
1000
0001
0010
0100
1000
0001
,
0100
0001
0010
1000
0100
0010
0001
0100
,
0010
0100
0001
1000
0100
0010
0001
1000
,
0020
0000
0000
2030
,
3200
0000
0000
0320
,
0032
0000
0000
0000
0000
0000
0000
0003
,
0200
0000
0000
0000
0320
0000
0000
0030
,
1000
0001
0100
0010
1000
0001
0010
0100
,
1000
0001
0010
0100
1000
0001
0010
0100
,
1000
0001
0010
0100
0001
1000
0100
0010
,
0001
1000
0100
0010
0001
1000
1001
0000
,
0010
1000
0100
0100
0010
1000
0001
0000
,
0100
1000
0010
0100
0001
0010
0100
1000
,
0001
1000
0100
1000
0010
0100
0001
1000
,
0100
0010
1001
0000
0010
0100
0110
0000
,
0001
1000
0100
0010
0001
1000
1001
0000
,
0010
0100
0001
0010
1000
0010
1010
0000
,
0001
0010
0100
1000
0001
1000
1001
0000
,
0010
0100
0001
0100
1000
0010
0100
0001
,
1000
0100
0010
0001
1000
0100
1001
0000
,
0010
1000
0100
0010
0001
1000
1001
0000
,
0220
0000
0000
0000
,
0330
0000
0000
0000
;

//---------------dance-single - Copied from----------------
#NOTES:
     dance-single:
     Copied from:
     Hard:
     9:
     0.604,0.863,0.154,0.276,0.407,839.000,34.000,61.000,0.000,0.000:
0000
0000
0000
0000
,
0020
0000
0000
0000
0000
0000
0000
0030
1000
0000
0100
0020
0000
0000
0032
0000
,
2003
0000
0000
0000
0000
0000
3010
0100
0002
0000
0000
0000
0000
0000
0000
0000
,
0203
0000
0000
0000
0000
0000
0000
0300
0020
0030
1000
0200
0000
0000
0320
0000
,
0032
0000
2003
3020
,
0230
0000
0001
0301
,
0010
0000
1000
0100
0000
0000
0010
0000
1000
0000
0001
1000
0000
0000
0010
0000
,
0000
0000
0000
0000
0000
0000
1000
0100
0010
0000
0000
0000
0000
0000
0000
0000
,
0100
0000
1000
0010
0000
0000
0001
0000
0010
0000
0001
0010
0000
0000
0100
0000
,
0000
0000
0000
0000
0000
0000
0010
1000
0100
0000
0000
0000
0000
0000
0000
0000
,
0010
0000
1000
0100
0000
0000
0010
0000
0100
0000
0001
0100
0000
0000
0010
0000
,
0000
0000
0000
0000
0000
0000
0001
0010
0100
0000
0000
0000
0000
0000
0000
0000
,
0001
0000
1000
0010
0000
0000
0100
0000
1000
0000
0010
0100
0000
0000
0001
0000
,
0000
0000
0000
0000
0000
0000
1000
0010
0100
0000
0001
0000
0000
0010
0000
0000
,
0100
0000
0000
1000
0000
0000
0010
0000
0000
0000
0100
0000
0001
0000
0010
0000
,
0100
0000
0000
1000
0000
0000
0010
0000
0000
0000
0100
0000
0001
0000
1000
0000
,
0010
0000
0000
0110
0000
0000
1001
0000
0000
0000
0010
0000
1000
0000
0100
0000
,
0010
0000
0000
0001
0000
0000
2000
0000
0000
0000
0010
0000
0010
0000
3010
0000
,
0001
0000
0000
0100
0000
0000
0010
0000
0000
0000
0100
0000
0001
0000
1000
0000
,
0100
0000
0000
0010
0000
0000
0100
0000
0000
0000
0001
0000
0010
0000
0100
0000
,
1000
0000
0000
0000
0001
0000
0000
0010
0000
0000
0100
0000
1000
0000
0010
0000
,
0100
0000
0000
0001
0000
0000
0010
0000
0000
0000
0100
0000
1000
0000
0020
0000
,
0000
0000
0230
0000
,
0302
0000
0000
0000
0000
0000
1003
0000
0000
0000
0010
1000
0010
2000
0010
0000
,
0000
3100
0010
0002
0000
0013
1000
0200
,
0000
0000
0000
0310
0000
0001
1000
0010
,
2000
0100
0001
0010
,
3200
0000
0000
0000
0010
0300
0001
0010
0001
0000
0000
0000
0110
0000
0000
0000
,
0001
1000
0100
0000
0110
0000
0001
0000
,
0020
0000
0000
0000
1030
0000
0100
1000
0100
0000
0000
0000
1010
0000
0000
0000
,
0001
0000
1000
0100
1000
0000
0001
0000
1000
0000
0010
0100
0010
0000
0100
0000
,
0001
0000
0010
0001
0010
0000
0100
0000
1000
0000
0010
1000
0010
0000
0100
0000
,
0001
0000
0010
0100
0010
0000
0001
0000
1000
0000
0001
1000
0010
0000
1000
0010
,
1000
0000
0100
1000
0001
0000
1000
0100
1000
0100
1000
0010
1000
0100
1000
0002
,
0000
0000
0000
0000
0000
0000
0000
0003
,
0010
1000
0000
1000
0010
0000
0100
1000
0000
0010
1000
0000
0001
0000
0100
0000
,
1000
0000
0100
0000
0010
0000
0001
1000
0000
0010
1000
0100
1000
0000
0001
0000
,
1000
0000
0100
0000
1000
0000
0010
1000
0000
0100
1000
0100
0010
0000
0001
0000
,
1000
0100
1000
0000
0100
0000
0010
0000
1000
0000
0100
0000
0100
0000
0001
0000
,
2000
0000
0000
0000
0000
0000
0000
0000
0000
3000
0000
0010
1000
0000
0000
0000
,
0200
0000
0000
0000
0000
0000
0000
0000
0000
0000
0300
0010
0001
0000
0000
0000
,
0200
0000
0000
0000
0000
0000
0000
0000
0000
0000
0000
0000
0000
0000
0000
0310
0000
0000
1000
0000
0100
0000
0000
0020
,
0000
0000
0032
0000
,
1003
0000
0100
0001
0010
0000
0100
1000
,
0010
0000
0001
0010
0100
0000
0010
1000
,
0100
1000
0001
0010
0100
1000
0001
0010
,
0100
1000
0010
0100
0001
1000
0010
1000
,
0100
1000
0100
1000
0100
0000
0010
0000
0100
0000
1000
0000
0001
0000
0010
0000
,
0100
0001
0010
0100
1000
0001
0100
0010
,
1000
0100
0010
0100
0001
0010
0100
1000
,
0001
0000
0100
0000
1000
0000
0010
0000
0100
0000
0110
0000
0000
1001
0000
0000
,
0100
0000
0000
1000
0000
0000
0010
0000
0000
0000
1000
0000
0010
0000
0001
0000
,
1000
0000
0000
0010
0000
0000
0100
0000
0000
0000
1010
0000
1010
0000
1010
0000
,
0100
0000
0000
0001
0000
0000
0010
0000
0000
0000
0100
0000
0010
0000
0001
0000
,
1000
0000
0000
0100
0000
0000
1000
0000
0000
0000
0010
0000
1000
0000
0001
0000
,
1001
0000
0000
0010
0000
0000
0100
0000
0000
0000
0001
0000
1000
0000
0100
0000
,
1100
0000
0000
0010
0000
0000
0100
0000
0000
0000
0001
0000
0010
0000
0100
0000
,
1100
0000
0000
0000
0110
0000
0000
0001
0000
0000
0100
0000
1000
0000
0010
0000
,
1000
0000
0000
0001
0000
0000
0010
0000
0000
0000
0100
0000
0010
0000
0001
0000
,
0020
0000
0000
0000
0000
0000
0000
0000
0230
0000
0000
0000
0000
0000
0000
0300
,
2000
0000
0000
0000
0000
0000
3010
0100
0010
0000
0000
0000
0001
0000
0000
0000
,
0010
1000
0100
0010
0001
0100
1000
0001
,
0010
0000
0100
0000
1000
0000
0010
1000
0010
0000
0000
0000
0110
0000
0000
0000
,
0001
0000
1000
0100
1000
0000
0010
0000
0100
0000
0001
0100
0001
0000
0010
0000
,
1000
0000
0010
1000
0010
0000
0100
0000
0001
0000
0100
0001
0100
0000
0010
0000
,
1000
0100
0001
0100
1000
0010
0010
0001
,
1000
0000
0100
0000
0010
0000
0001
0000
1000
0010
1000
0010
1000
0010
1000
0020
,
0000
0000
0000
0000
0000
0000
0000
0030
,
1000
0100
1000
0100
1000
0100
1000
0100
1000
0100
1000
0000
1100
0000
1100
0000
,
0010
0100
0010
0100
0010
0100
0010
0100
0010
0100
0010
0000
0110
0000
0110
0000
,
0001
0100
0001
0100
0001
0100
0001
0100
0001
0100
0001
0000
0101
0000
0101
0000
,
0010
1000
0010
1000
0010
1000
0010
1000
0010
1000
0010
1000
0010
1000
0010
0000
,
0020
0000
0000
0032
,
0203
0000
0000
0000
0000
0000
0000
0000
0000
0000
0000
0320
0000
0000
0000
0030
,
2000
0000
0000
0000
0000
0000
0000
0000
0000
0000
0000
3200
0000
0000
0000
0300
,
0010
0000
0001
0000
0020
0000
0000
0000
0000
0000
0100
0000
0000
0030
0000
0000
,
0010
1000
0010
1000
0010
1000
0010
1000
0010
1000
0010
0000
1010
0000
1010
0000
,
0100
1000
0100
1000
0001
0010
0100
1000
,
0010
1000
0100
0010
0001
1000
0100
0010
,
0001
0000
1000
0000
0010
0000
1000
0000
0000
1000
0010
1000
0100
0000
1000
0000
,
0220
0000
0000
0000
0000
0000
0000
0000
0000
0030
0300
0000
1100
0000
0000
0000
,
0220
0000
0000
0000
0000
0000
0000
0000
0000
0330
0000
0001
1000
0000
0000
0000
,
0200
0000
0000
0000
0000
0000
0000
0000
0000
0000
0000
0000
0000
0000
0000
0000
0000
0000
0000
0000
0000
0300
0000
0000
0000
0000
0000
0000
0000
0000
1000
0000
0000
0000
0000
0000
0100
0000
0000
0000
1000
0000
0000
0000
0000
0000
0002
0000
,
0000
0000
0023
0000
,
1030
0100
0001
0100
0010
1000
0100
0010
,
0001
0100
0010
1000
0100
0010
0001
1000
,
0100
0000
0010
0000
0001
0000
1000
0100
1000
0000
0010
0000
0100
0000
0001
0000
,
0010
0000
0100
0000
0010
0000
0001
0010
0001
0010
0001
0000
0010
0000
0100
0000
,
1000
0100
0001
0100
1000
0010
1000
0100
,
0001
0010
0100
1000
0100
0010
0001
1000
,
0100
0000
0010
0100
0010
0000
0100
0010
0100
0000
0100
0010
1000
0000
0001
0010
,
0100
1000
0100
1000
0100
1000
0000
0000
0001
0100
0001
0100
0001
0100
0001
0000
,
0010
1000
0100
0001
0010
1000
0100
0001
,
0100
1000
0010
0001
0100
1000
0010
0001
,
0010
0100
0001
0010
1000
0100
0010
0001
,
0100
1000
0010
0100
0001
0010
0100
1000
,
0020
0000
0000
0000
0000
0030
1100
0000
,
0210
0000
0000
0000
0000
0300
0011
0000
,
0200
0000
0000
0000
0000
0300
1000
0000
,
0001
0010
0200
0000
0000
0020
0000
0330
,
0001
1000
0001
1000
0001
1000
0001
1000
0001
1000
0001
0000
1001
0000
1001
0000
,
0010
0100
0010
0100
0010
0100
0010
0100
0010
0100
0010
0000
0110
0000
0110
0000
,
0001
0010
0100
1000
0100
0010
0001
1000
,
0001
1000
0010
1000
0100
0000
0010
0000
0000
1000
0100
0010
1000
0000
0010
0000
,
0002
0000
0000
0023
,
2030
0000
0000
3200
,
2300
0000
0000
0000
0000
0000
0000
0000
0000
0000
0000
0000
3000
0000
0000
0001
0000
0000
1000
0000
0010
0000
0000
2000
,
0000
0000
0000
0000
0000
0000
0000
0000
3200
0000
0000
0000
0000
0000
0000
0300
,
0010
0001
0010
1000
0100
0001
0100
1000
,
0010
0100
0010
0100
0001
0010
0100
1000
,
0001
1000
0100
1000
0010
0010
0100
1000
,
0001
0010
0100
1000
0001
0010
0100
1000
,
0001
1000
0000
0100
1000
0000
0010
1000
0000
0010
1000
0000
0100
0000
1000
0000
,
0001
1000
0000
0100
1000
0000
0010
0100
0000
0000
0100
0000
0010
0000
1000
0000
,
0100
1000
0000
0001
0100
0000
0010
0100
0000
0001
1000
0000
0100
0000
1000
0000
,
0010
1000
0000
0001
1000
0000
0100
0010
0000
0100
1000
0000
0001
0000
0010
0000
,
1000
0100
0000
1000
0010
0000
1000
0001
0000
1000
0001
0000
0010
0000
0001
0000
,
1000
0100
0000
1000
0010
0000
1000
0100
0000
0010
0001
0000
1000
0000
0100
0000
,
1000
0001
0000
1000
0010
0000
1000
0100
0000
0010
0001
0000
1000
0000
0100
0000
,
0010
0001
0000
1000
0100
0000
0010
0001
0000
1000
0100
0000
0010
0001
1000
0000
,
0100
1000
0000
0010
1000
0000
0100
1000
0000
0001
0100
0000
0010
0000
1000
0000
,
0100
1000
0000
0001
1000
0000
0010
1000
0000
0100
1000
0000
0001
0000
1000
0000
,
0220
0000
0000
0000
,
0330
0000
0000
0000
;

//---------------dance-single - Copied from Copied f----------------
#NOTES:
     dance-single:
     Copied from Copied f:
     Challenge:
     12:
     0.917,1.000,0.253,0.244,1.000,1308.000,56.000,54.000,0.000,0.000:
0000
0000
0000
0000
,
0020
0000
0000
0000
1030
0100
0010
0001
2000
0000
3010
2000
0000
0000
3200
0000
,
0320
0000
0000
0000
0032
0000
1003
0010
0200
0000
0000
0000
0001
0000
0001
0000
,
0320
0000
0000
0030
2000
0000
0200
3000
0001
0300
0010
0002
0000
0000
2003
0000
,
3020
0230
0302
2003
,
3020
0100
0100
1000
,
0130
0000
1000
0100
0000
0000
0010
0000
1000
0000
0100
1000
0000
0000
0001
0000
,
0010
0000
0100
0000
1000
0000
0010
1000
0010
1000
0010
0000
1000
0000
0100
0000
,
1000
0000
0001
1000
0000
0000
0010
0000
1000
0000
0100
1000
0000
0000
0001
0000
,
0010
0000
0100
0000
1000
0000
0001
0010
0001
0010
0001
0010
0001
0010
0001
0000
,
0010
0000
1000
0100
0000
0000
1000
0000
0010
0000
1000
0100
0000
0000
0001
0000
,
0010
0000
0100
1000
0001
1000
0100
0010
1000
0001
1000
0001
1000
0100
1000
0000
,
0010
1000
0100
1000
0100
1000
0001
0000
0010
0100
0010
0100
0010
0001
0010
0000
,
0100
1000
0010
1000
0100
1000
0001
0010
0100
0000
0001
0000
0000
1000
0000
0000
,
0100
0000
0000
0001
0000
0000
0010
0000
0000
0100
0000
0000
1000
0000
0001
0000
,
1000
0000
0000
1100
0000
0000
0110
0000
0000
0000
0001
0000
0010
0000
0100
0000
,
1000
0000
0000
1100
0000
0000
0110
0000
0000
0000
0001
0000
0100
0000
1000
0000
,
0010
0000
0000
0010
0000
0000
0002
0000
0000
0000
0010
0000
0100
0000
1000
0000
,
0103
0000
0000
1100
0000
0000
0110
0000
0000
0000
0001
0000
0100
0000
1000
0000
,
0010
0000
0000
0001
0000
0000
1010
0000
0000
0000
0100
0000
0001
0000
1000
0000
,
0200
0000
0000
0000
0301
0000
0000
0110
0000
0000
0001
0000
1000
0000
0100
0000
,
1000
0000
0010
0000
0000
0100
0000
0000
0000
0000
0100
0000
1000
0000
0001
0000
,
0010
0001
0010
0001
0010
0001
0010
0001
0010
0100
0010
0100
0010
0100
0010
0100
,
1000
0100
1000
0100
1000
0100
1000
0000
0000
0000
0010
0000
1000
0000
0010
0000
,
0100
1000
0100
1000
0100
1000
0100
1000
0001
1000
0001
1000
0001
1000
0001
1000
,
0100
1000
0100
1000
0100
1000
0100
0000
0000
0000
0100
1000
0100
0000
1000
0000
,
0001
1000
0100
1000
0010
1000
0100
1000
0100
0010
0001
1000
0100
0000
0010
1001
,
0100
0000
0010
0001
1000
0100
1000
0001
1000
0000
0000
0000
1001
0000
0000
0000
,
1000
0100
0010
1000
0100
1000
0100
1000
0001
1000
0100
1000
0001
1000
0100
0010
,
0001
1000
0100
0010
0001
1000
0001
1000
0001
0000
0000
0000
1001
0000
0000
0000
,
0010
0100
1000
0100
1000
0100
1000
0001
1000
0100
1000
0010
1000
0100
1000
0001
,
0010
1000
0100
1000
0001
0010
0100
1000
0001
1000
0010
1000
0001
0100
0010
1000
,
0001
0010
0100
1000
0100
0001
0100
0010
1000
0100
0010
0001
1000
0100
0010
0001
,
1000
0010
0100
0001
1000
0100
0010
0100
1000
0100
0001
0010
0100
1000
0002
2000
,
0000
0000
0000
0000
0000
0000
0000
3003
,
0010
1000
0000
1000
0010
0000
1000
0100
0000
0100
0010
0000
0001
0000
0010
0000
,
0100
1000
0000
0010
1000
0000
0100
1000
0000
0001
0010
0000
0100
0000
1000
0000
,
0001
1000
0000
0001
1000
0000
0100
1000
0000
0010
1000
0100
0010
0000
0010
0000
,
0001
1000
0000
0100
1000
0000
0010
1000
0000
0100
0010
0000
0001
0000
1000
0000
,
0010
1000
0100
0100
0001
0010
0100
0001
,
0100
0000
1000
0000
0010
0000
0100
0000
0001
0000
0100
0000
1000
0020
0000
0000
,
0130
0000
0001
0000
0010
0000
0100
0000
1000
0000
0001
0000
1000
0010
0000
2000
,
0000
0000
0000
0000
3020
0000
0000
0030
,
0100
1000
0001
0010
0100
1000
0010
1000
,
1100
0000
0001
0000
0100
0000
0010
0000
1000
0000
0100
0000
0010
0000
0001
1000
,
0001
0010
1000
0100
0010
0001
1000
1001
,
0110
0000
0001
0000
1000
0000
0100
0000
1000
0000
0010
1000
0010
1000
0010
0000
,
0100
0001
1000
0100
0010
0001
1000
1100
,
0110
0000
0001
0000
1000
0000
0100
0000
0010
0000
0001
0000
0100
0000
0010
1000
,
0000
0000
0100
0001
0000
0000
0010
0100
0000
0000
1000
0100
0000
0000
0010
0100
,
0000
0000
0100
1000
0000
0000
0001
1000
0100
0000
0001
0000
0001
1000
0000
0000
,
0010
0000
0000
0100
0000
0000
0002
0000
0000
0000
0013
0000
0100
0000
1000
0000
,
0001
0000
1000
0001
0000
0000
0110
0000
0000
0000
0100
0000
1000
0000
0001
0000
,
1100
0000
0000
0110
0000
0000
2002
0000
0000
3003
0100
0000
1000
0000
0001
0000
,
0101
0000
0000
1010
0000
0000
0110
0000
0000
0000
0002
0000
0103
0000
1000
0100
,
1000
0000
0000
0101
0000
0000
2200
0000
0000
3300
0001
0000
0010
0000
0100
0000
,
0011
0000
0000
1010
0000
0000
1010
0000
0000
0000
0001
0000
0100
0000
1000
0000
,
0010
0000
0000
0000
0100
0000
0000
0001
0000
0000
1000
0000
0010
0000
1000
0000
,
1100
0000
0000
1100
0000
0000
0110
0000
0000
0000
0001
0000
1000
0000
0100
0000
,
0010
0001
1000
0100
1000
0001
0100
0010
1000
0100
0010
0001
1000
0100
0010
0001
,
1000
0100
0010
1000
0001
1000
0001
1000
0002
0000
0000
0003
1010
0000
0000
0000
,
0100
1000
0100
1000
0010
0100
0001
1000
0100
0010
0001
1000
0100
0010
0001
1000
,
0100
1000
0010
0001
1000
0001
1000
0001
2000
0000
3000
0000
1001
0000
0000
0000
,
0010
1000
0100
1000
0001
0100
0010
1000
0001
0100
0010
1000
0001
0010
0100
1000
,
0001
0010
0100
1000
0001
1000
0010
1000
0001
0100
0010
1000
0001
1000
0010
0100
,
1000
0001
0100
0010
1000
0001
1000
0001
1000
0001
1000
0001
1000
0001
1000
0010
,
0100
0010
0100
0010
0100
0100
0010
0100
0010
0100
0010
0100
0010
0100
0010
0200
,
0000
0000
0000
0000
0000
0000
0000
0000
0000
0000
0000
0000
0000
0000
0000
0300
,
0001
0010
0000
0001
0010
0000
0010
1000
0000
0010
0100
0000
0001
0000
0001
0000
,
0100
1000
0000
0100
0010
0000
1000
0100
0000
0100
1000
0000
0100
0000
0100
0000
,
0010
0100
0010
0100
0000
0100
0010
0000
0010
0100
0000
0000
0010
0000
0010
0000
,
0001
1000
0000
0100
1000
0000
0001
1000
0000
0010
1000
0000
0100
0000
0010
0000
,
0001
1000
0001
1000
0001
1000
0100
1000
0100
1000
0010
0100
1001
0000
1010
0000
,
1000
0100
1000
0001
0010
0100
0010
1000
0001
0010
0100
1000
0101
0000
0110
0000
,
0001
1000
0001
1000
0010
1000
0100
1000
0001
1000
0010
0100
1010
0000
1100
0000
,
0100
0100
0010
1000
0100
1000
0001
0010
0000
1000
0100
0000
1001
0000
1001
0000
,
1001
0100
0010
1000
0010
0001
1000
0010
0100
1000
0100
0010
1001
0000
0110
0000
,
1010
0100
0010
0010
1000
0001
0100
1000
0010
0001
1000
0100
1010
0000
0110
0000
,
1001
0100
0010
1000
0010
0100
0010
0001
0100
1000
0001
0100
0011
0000
0110
0000
,
1001
0100
0010
1000
0010
0100
1000
0100
0010
0100
0001
0010
0100
0010
1000
0100
,
0001
1000
0001
1000
0001
1000
0001
1000
0001
1000
0001
1000
0001
1000
0001
0010
,
0100
1000
0100
1000
0100
1000
0100
1000
0100
1000
0100
1000
0100
1000
0100
1000
,
0010
0100
0010
0100
0010
0100
0010
0100
0010
0100
0010
1000
0010
0100
0010
1000
,
0001
0010
0100
1000
0001
0010
0100
1000
0001
0010
0100
1000
0001
0010
0100
0000
,
0001
0000
0001
0000
1000
0000
0010
0100
0000
0100
0010
0000
0010
0000
0100
0000
,
0001
0000
0010
0000
0100
0000
0100
1000
0000
0100
0010
0000
1000
0000
0100
0000
,
1000
0001
1000
0100
1000
0001
1000
0100
1000
0010
1000
0100
0010
0100
0001
1000
,
0100
0010
0001
1000
0100
0010
0001
1000
0100
0010
0010
1000
0100
1000
0100
0000
,
0001
0100
0000
0100
0010
0000
1000
0010
0000
1000
0100
0000
1100
0000
1100
0000
,
0010
0100
0000
0010
0001
0000
1000
0100
0000
0010
0001
0000
0110
0000
0101
0000
,
0100
1000
0010
1000
0100
1000
0010
0001
0010
0100
1000
0001
1000
0100
1000
0001
,
1000
0001
0100
1000
0001
1000
0001
1000
0001
1000
0001
1000
0001
1000
0001
0000
,
0010
1000
0100
1000
0001
0010
0100
1000
0100
0001
0010
0000
0001
0000
0001
0000
,
0010
1000
0100
1000
0100
1000
0001
0010
0100
1000
0100
0000
0010
0000
0010
0000
,
0100
1000
0100
1000
0010
0100
0001
0010
0100
0010
1000
0000
0010
0000
0010
0000
,
1000
0001
1000
0100
1000
0010
1000
0100
0010
0001
0100
1000
0100
0010
0001
0000
,
2000
0000
0000
0000
0000
0000
0000
0000
0000
0000
3000
0010
1000
0000
0000
0000
,
0200
0000
0000
0000
0000
0000
0000
0000
0000
0000
0300
0000
1000
0001
0000
0000
,
0200
0000
0000
0000
0000
0300
0020
0000
,
1030
0100
0020
0000
0000
0032
0000
0000
,
0103
1000
0100
1000
0100
1000
0100
1000
0100
1000
0100
0010
0001
1000
0001
1000
,
0001
1000
0010
1000
0100
0010
0001
1000
0100
1000
0010
0001
1000
0001
1000
0001
,
0010
1000
0100
0010
0001
1000
0100
0010
0100
1000
0010
0100
1000
0001
0001
1000
,
0010
1000
0100
1000
0001
0010
0100
1000
0001
0010
0100
1000
0001
0010
1000
0100
,
0002
0023
0032
0203
,
0320
0230
0302
2003
,
3020
0000
0000
0000
2000
0030
0000
0000
3200
0000
0310
0000
0001
1000
0000
0020
,
0000
0000
0000
0000
0230
0000
0000
0300
,
0001
1000
0001
1000
0100
1000
0100
1000
0010
1000
0010
0100
0010
0001
1000
0100
,
0010
0001
1000
0100
0010
0001
1000
0010
0100
0001
1000
0010
0100
0010
0001
0000
,
0100
1000
0010
1000
0100
0010
0001
0010
1000
0100
1000
0001
0100
0010
1000
0100
,
0010
0001
1000
0100
0010
1000
0100
0010
0001
1000
0100
0010
0001
1000
0100
0000
,
0001
1000
0010
1000
0100
0010
1000
0001
1000
0100
1000
0010
0100
0010
0001
0010
,
0100
1000
0001
0010
0100
1000
0001
1000
0010
0100
1000
0001
1000
0100
1000
0000
,
0010
1000
0100
1000
0001
0010
0100
1000
0100
0001
1000
0001
0100
0010
1000
0100
,
0010
0001
1000
0100
1000
0010
0001
1000
0100
0010
0001
1000
0100
1000
0010
0000
,
0001
1000
0001
1000
0001
1000
0001
1000
0001
0100
1000
0001
1000
0001
1000
0010
,
0100
1000
0001
1000
0100
1000
0100
0010
0100
0001
0100
1000
0100
0010
0100
1000
,
0001
1000
0001
1000
0001
1000
0001
1000
0001
1000
0010
0001
1000
0100
1000
0100
,
0010
1000
0010
1000
0010
1000
0010
1000
0010
1000
0001
0010
1000
0010
1000
0100
,
0001
0010
0100
1000
0001
0010
0100
0010
1000
0100
0010
0001
1000
0100
0010
1000
,
0001
1000
0000
0001
1000
0000
0010
1000
0000
0100
1000
0000
0001
0000
1000
0000
,
0220
0000
0000
0000
,
0330
0000
0000
0000
;
